<?xml version="1.0" standalone="no"?>
<!DOCTYPE svg PUBLIC "-//W3C//DTD SVG 1.1//EN" "http://www.w3.org/Graphics/SVG/1.1/DTD/svg11.dtd" >
<svg xmlns="http://www.w3.org/2000/svg">
<metadata>Generated by IcoMoon</metadata>
<defs>
<font id="icomoon" horiz-adv-x="512">
<font-face units-per-em="512" ascent="480" descent="-32" />
<missing-glyph horiz-adv-x="512" />
<glyph unicode="&#x20;" d="" horiz-adv-x="256" />
<glyph unicode="&#xe600;" d="M448 0v-16q0-6.5-4.75-11.25t-11.25-4.75h-32q-6.5 0-11.25 4.75t-4.75 11.25v16h-256v-16q0-6.5-4.75-11.25t-11.25-4.75h-32q-6.5 0-11.25 4.75t-4.75 11.25v16q-26.5 0-45.25 18.75t-18.75 45.25v32q0 35 18.25 72.25t48.5 62.5 61.25 25.25q13 0 22.5 9.25t9.5 22.75v32q0 13 9.25 22.5t22.75 9.5 22.75-9.5 9.25-22.5h64q0 13 9.25 22.5t22.75 9.5 22.75-9.5 9.25-22.5v-32q0-13.5 9.25-22.75t22.75-9.25q31 0 61.25-25.25t48.5-62.5 18.25-72.25v-32q0-26.5-18.75-45.25t-45.25-18.75zM256 224q-40 0-68-28.25t-28-68 28-67.75 68-28 68 28 28 68-28 68-68 28zM256 64q-26.5 0-45.25 18.75t-18.75 45.25 18.75 45.25 45.25 18.75 45.25-18.75 18.75-45.25-18.75-45.25-45.25-18.75zM448 288h-16.25t-14.25 0.5-13.75 1.5-10 2.75-7.5 4.5-2.25 6.75v51.5q-12.5 11-50 19.75t-78 8.75-78-8.75-50-19.75v-51.5q0-4-2.25-6.75t-7.5-4.5-10-2.75-13.75-1.5-14.25-0.5h-33.75t-14.5 0.5-13.5 1.5-9.5 2.75-7 4.5-2 6.75v43.5q0 31 34.75 54.25t92.25 34.75 129 11.5 129-11.5 92.25-34.75 34.75-54.25v-43.5q0-4-2-6.75t-7-4.5-9.5-2.75-13.5-1.5-14.5-0.5h-17.5z" />
<glyph unicode="&#xe601;" d="M255.936 232.688l256.064 120.624v62.688h-512v-62.496zM256.064 161.936l-256.064 120.944v-250.88h512v250.496z" />
<glyph unicode="&#xe602;" d="M240 448c-132.548 0-240-107.452-240-240 0-132.549 107.452-240 240-240 132.549 0 240 107.451 240 240 0 132.548-107.451 240-240 240zM375.795 128c4.29 20.227 6.998 41.696 7.879 64h63.723c-1.668-22.098-6.812-43.557-15.34-64h-56.262zM104.205 288c-4.29-20.227-6.998-41.696-7.879-64h-63.722c1.668 22.097 6.811 43.557 15.339 64h56.262zM343.018 288c4.807-20.481 7.699-41.927 8.64-64h-95.658v64h87.018zM256 320v93.669c7.295-2.123 14.522-5.685 21.614-10.685 13.291-9.37 26.006-23.804 36.77-41.743 7.441-12.401 13.876-26.208 19.248-41.242h-77.632zM165.616 361.242c10.764 17.939 23.478 32.374 36.77 41.743 7.091 5 14.319 8.562 21.614 10.685v-93.67h-77.632c5.373 15.033 11.808 28.84 19.248 41.242zM224 288v-64h-95.657c0.94 22.073 3.833 43.519 8.639 64h87.018zM47.944 128c-8.528 20.443-13.671 41.902-15.339 64h63.722c0.881-22.304 3.589-43.773 7.879-64h-56.262zM128.343 192h95.657v-64h-87.018c-4.806 20.48-7.699 41.927-8.639 64zM224 96v-93.67c-7.294 2.123-14.522 5.686-21.614 10.685-13.292 9.37-26.007 23.805-36.77 41.743-7.441 12.402-13.875 26.209-19.249 41.242h77.633zM314.384 54.758c-10.764-17.938-23.479-32.373-36.77-41.743-7.092-4.999-14.319-8.562-21.614-10.685v93.67h77.633c-5.373-15.033-11.808-28.84-19.249-41.242zM256 128v64h95.657c-0.94-22.073-3.833-43.52-8.64-64h-87.017zM383.674 224c-0.881 22.304-3.589 43.773-7.879 64h56.262c8.528-20.443 13.672-41.903 15.34-64h-63.723zM415.329 320h-47.95c-9.319 29.381-22.188 55.147-37.658 75.714 21.268-10.17 40.529-23.808 57.357-40.636 10.74-10.739 20.181-22.469 28.251-35.078zM92.922 355.078c16.829 16.829 36.090 30.466 57.357 40.636-15.471-20.567-28.338-46.333-37.658-75.714h-47.949c8.069 12.609 17.511 24.339 28.25 35.078zM64.672 96h47.949c9.32-29.381 22.188-55.147 37.659-75.715-21.268 10.17-40.529 23.808-57.357 40.637-10.74 10.739-20.182 22.469-28.251 35.078zM387.078 60.922c-16.828-16.829-36.090-30.467-57.357-40.637 15.471 20.567 28.339 46.334 37.658 75.715h47.95c-8.070-12.609-17.511-24.339-28.251-35.078z" />
<glyph unicode="&#xe603;" d="M512 18.909c0-46.546-46.546-46.546-46.546-46.546l-133.166 133.144c-34.514-25.088-76.87-40.053-122.834-40.053-115.689 0-209.454 93.766-209.454 209.454s93.766 209.454 209.454 209.454 209.454-93.766 209.454-209.454c0-45.964-14.988-88.32-40.075-122.856l133.166-133.143zM209.454 437.818c-89.972 0-162.909-72.937-162.909-162.909s72.936-162.909 162.909-162.909 162.909 72.936 162.909 162.909-72.936 162.909-162.909 162.909z" />
<glyph unicode="&#xe604;" d="M510.624 393.6l-46.624-185.6c0-2.224-0.448-4.32-1.248-6.224-1.632-3.84-4.688-6.912-8.512-8.528-1.92-0.816-4.032-1.248-6.24-1.248h-304l12.8-64h275.2c8.848 0 16-7.152 16-16s-7.152-16-16-16h-288c-8.848 0-16 7.152-16 16l-60.8 304h-51.2c-8.832 0-16 7.168-16 16s7.168 16 16 16h64c8.848 0 16-7.168 16-16l3.2-16h396.8c8.848 0 16-7.168 16-16 0-2.288-0.512-4.432-1.376-6.4zM137.6 224h54.4v160h-86.4l32-160zM288 384h-80v-160h80v160zM384 384h-80v-160h80v160zM400 384v-160h36.048l40.528 160h-76.576zM176 64c26.512 0 48-21.504 48-48s-21.488-48-48-48-48 21.504-48 48 21.488 48 48 48zM176 0c8.848 0 16 7.152 16 16s-7.152 16-16 16-16-7.152-16-16 7.152-16 16-16zM400 64c26.512 0 48-21.504 48-48s-21.488-48-48-48-48 21.504-48 48 21.488 48 48 48zM400 0c8.848 0 16 7.152 16 16s-7.152 16-16 16-16-7.152-16-16 7.152-16 16-16z" />
<glyph unicode="&#xe605;" d="M313.933 161.459c0 0 180.711 130.381 160.666 279.629-0.461 3.277-1.536 5.427-2.867 6.887-1.408 1.357-3.507 2.483-6.733 2.944-145.843 20.454-273.255-164.454-273.255-164.454-110.541 13.261-102.502-8.807-152.935-129.92-9.651-23.091 5.99-31.053 23.142-24.55 17.152 6.451 55.014 20.762 55.014 20.762l66.278-67.815c0 0-13.977-38.733-20.301-56.269-6.323-17.587 1.434-33.587 24.013-23.731 118.374 51.635 139.929 43.418 126.976 156.518zM339.738 312.909c-15.309 15.667-15.309 41.063 0 56.73 15.309 15.642 40.115 15.642 55.424 0 15.334-15.642 15.334-41.063 0-56.73-15.283-15.693-40.115-15.693-55.424 0z" />
<glyph unicode="&#xe606;" d="M109.715 75.429q0-22.857-16-38.857t-38.857-16-38.857 16-16 38.857 16 38.857 38.857 16 38.857-16 16-38.857zM109.715 221.714q0-22.857-16-38.857t-38.857-16-38.857 16-16 38.857 16 38.857 38.857 16 38.857-16 16-38.857zM512 102.857v-54.857q0-3.714-2.714-6.428t-6.428-2.714h-347.428q-3.714 0-6.428 2.714t-2.714 6.428v54.857q0 3.714 2.714 6.428t6.428 2.714h347.428q3.714 0 6.428-2.714t2.714-6.428zM109.715 368q0-22.857-16-38.857t-38.857-16-38.857 16-16 38.857 16 38.857 38.857 16 38.857-16 16-38.857zM512 249.143v-54.857q0-3.714-2.714-6.428t-6.428-2.714h-347.428q-3.714 0-6.428 2.714t-2.714 6.428v54.857q0 3.714 2.714 6.429t6.428 2.714h347.428q3.714 0 6.428-2.714t2.714-6.428zM512 395.429v-54.857q0-3.714-2.714-6.428t-6.428-2.714h-347.428q-3.714 0-6.428 2.714t-2.714 6.428v54.857q0 3.715 2.714 6.428t6.428 2.715h347.428q3.714 0 6.428-2.715t2.714-6.428z" />
<glyph unicode="&#xe607;" d="M128 320c0 70.692 57.308 128 128 128s128-57.308 128-128c0-70.692-57.308-128-128-128-70.692 0-128 57.308-128 128zM384 160h-256c-70.692 0-128-57.309-128-128v-32h512v32c0 70.691-57.308 128-128 128z" />
<glyph unicode="&#xe608;" d="M502.25 202.25q-9.75-9.75-23.5-9.75t-23.25 9.5l-7.5 7.5v-209.5q0-13-9.25-22.5t-22.75-9.5h-96v144q0 6.5-4.75 11.25t-11.25 4.75h-96q-6.5 0-11.25-4.75t-4.75-11.25v-144h-96q-13.5 0-22.75 9.5t-9.25 22.5v209.5l-7.5-7.5q-9.5-9.5-23.25-9.5t-23.5 9.75-9.75 23.5 9.5 23.25l222 222q10 10 24.5 9.5 14.5 0.5 24.5-9.5l222-222q9.5-9.5 9.5-23.25t-9.75-23.5z" />
<glyph unicode="&#xe609;" d="M402.986 325.077c17.238 10.582 28.651 25.024 34.24 43.392-16.768-8.896-33.472-14.998-50.154-18.368-14.998 16.128-33.984 24.32-56.746 24.32-22.25 0-41.046-7.808-56.384-22.998-15.253-15.296-22.954-33.878-22.954-55.574 0-6.592 0.832-12.48 2.496-17.472-65.621 2.24-119.936 29.462-162.731 81.856-7.254-12.822-10.88-25.877-10.88-39.382 0-27.755 11.712-49.75 35.094-65.899-13.334 1.131-25.088 4.501-35.094 10.026 0-19.818 5.824-36.373 17.493-50.944 11.712-14.421 26.752-23.616 45.12-27.541-6.656-1.707-13.674-2.517-20.886-2.517-6.656 0-11.37 0.555-14.165 1.771 4.906-16.149 14.165-29.248 27.541-39.274 13.333-10.070 28.672-15.382 45.91-15.851-28.416-22.293-60.906-33.322-97.664-33.322-9.002 0-15.382 0.128-19.242 0.81 36.202-23.51 76.501-35.178 121.088-35.178 45.632 0 85.952 11.563 121.046 34.688 35.094 22.998 60.992 51.37 77.632 84.779 16.726 33.365 25.002 68.096 25.002 104.362v9.984c16.171 12.16 29.248 25.856 39.254 40.981-14.507-6.25-29.504-10.496-45.014-12.65z" />
<glyph unicode="&#xe60a;" d="M128.042 128.021c-23.616 0-42.752-19.136-42.709-42.688 0-23.552 19.114-42.688 42.709-42.645 23.53-0.043 42.667 19.072 42.624 42.645 0.042 23.616-19.094 42.731-42.624 42.688zM128 384c-23.552 0-42.666-19.114-42.666-42.666s19.115-42.667 42.666-42.667c117.632 0 213.333-95.702 213.333-213.334 0-23.552 19.115-42.666 42.666-42.666s42.666 19.115 42.666 42.666c0 164.694-133.974 298.666-298.666 298.666zM128 256c-23.552 0-42.666-19.114-42.666-42.667s19.115-42.666 42.666-42.666c47.040 0 85.334-38.272 85.334-85.334 0-23.552 19.114-42.666 42.666-42.666s42.666 19.115 42.666 42.666c0 94.101-76.565 170.667-170.667 170.667z" />
<glyph unicode="&#xe60b;" d="M146 316.572h73.428l-8.572-81.143h-64.857v-235.428h-97.428v235.428h-48.572v81.143h48.572v48.857q0 52 24.572 78.715t80.857 26.714h64.857v-81.143h-40.572q-11.143 0-17.857-1.857t-9.714-6.714-3.857-9.857-0.857-14.143v-40.572z" horiz-adv-x="220" />
<glyph unicode="&#xe60c;" d="M250.286 56.857q0 6-1.286 11.572t-2.714 10.286-5 9.857-6 8.714-7.572 8.428-7.857 7.286-9.143 7.286-8.857 6.572-9.429 6.572-8.714 6q-4.857 0.572-14.286 0.572-15.428 0-30.286-2t-30.857-7.143-28-13.143-19.715-21.428-7.715-30.572q0-19.428 10.143-34.714t26.572-24 34.428-13 36.285-4.286q16.857 0 32.143 3.572t28.715 11.143 21.286 21 7.857 31.428zM216 303.143q0 17.143-4.714 36.428t-13.428 37.286-24 29.714-34.143 11.714q-26.572 0-41.143-19.714t-14.572-47.143q0-13.428 3.285-28.285t10.143-29.714 16-26.714 22.285-19.286 27.714-7.428q27.714 0 40.143 17.286t12.429 45.857zM178.571 438.857h124.857l-38.572-22.572h-38.572q20.286-12.857 31.428-36t11.143-48.285q0-21.143-6.572-37.572t-16-26.428-18.857-18.428-16-17.428-6.571-19.286q0-7.428 4.714-14.572t12.286-13.714 16.714-13.714 18.286-15.857 16.714-18.857 12.286-24.286 4.714-30.428q0-45.714-40-80.572-43.428-37.429-120-37.429-16.857 0-34.143 2.857t-34.857 9.572-31 16.572-22 25.428-8.572 34.714q0 17.428 10.572 38.572 9.143 18.286 27.428 31.572t41.428 20.286 44.285 10.286 42.857 3.857q-18.286 23.714-18.286 42.572 0 3.428 0.571 6.714t1.429 5.572 2.286 6.143 2 6.143q-11.428-1.428-20-1.428-42.572 0-73 28t-30.428 70.286q0 40 27.143 71.572t66.857 40.428q26.857 5.714 53.428 5.714zM475.428 365.714v-36.571h-73.143v-73.143h-36.572v73.143h-73.143v36.571h73.143v73.143h36.572v-73.143h73.143z" horiz-adv-x="476" />
<glyph unicode="&#xe60d;" d="M99.715 296.857v-283.143h-94.285v283.143h94.285zM105.715 384.286q0.285-20.857-14.428-34.857t-38.715-14h-0.572q-23.428 0-37.715 14t-14.286 34.857q0 21.143 14.714 35t38.428 13.857 38-13.857 14.572-35zM438.857 176v-162.286h-94v151.429q0 30-11.572 47t-36.143 17q-18 0-30.143-9.857t-18.143-24.428q-3.143-8.572-3.143-23.143v-158h-94q0.571 114 0.571 184.857t-0.286 84.572l-0.286 13.714h94v-41.143h-0.571q5.714 9.143 11.714 16t16.143 14.857 24.857 12.428 32.714 4.428q48.857 0 78.572-32.428t29.714-95z" horiz-adv-x="439" />
<glyph unicode="&#xe60e;" d="M446.059 385.941l-60.117 60.118c-18.669 18.668-55.542 33.941-81.942 33.941h-224c-26.4 0-48-21.6-48-48v-416c0-26.4 21.6-48 48-48h352c26.4 0 48 21.6 48 48v288c0 26.4-15.273 63.273-33.941 81.941zM320 412.219c1.098-0.402 2.226-0.84 3.379-1.318 9.030-3.741 15.299-8.088 17.308-10.097l60.118-60.119c2.009-2.009 6.356-8.277 10.097-17.307 0.478-1.153 0.916-2.281 1.318-3.378h-92.22v92.219zM416 32h-320v384h192v-128h128v-256zM128 224h256v-32h-256zM128 160h256v-32h-256zM128 96h256v-32h-256z" />
<glyph unicode="&#xe60f;" d="M464 416h-416c-26.512 0-48-21.488-48-48v-288c0-26.496 21.488-48 48-48h416c26.512 0 48 21.504 48 48v288c0 26.512-21.488 48-48 48zM43.856 64.16l-11.696 11.712 131.984 131.968 11.696-11.712-131.984-131.968zM468.144 64.16l-131.984 131.968 11.696 11.712 131.984-131.968-11.696-11.712zM272 170.8v-10.8h-32v10.8l-207.952 192.8 20.352 20.352 203.6-188.768 203.6 188.768 20.352-20.352-207.952-192.8z" />
<glyph unicode="&#xe610;" d="M512 192.496v64l-76.496 31.872c-2.128 6-4.368 11.808-7.12 17.504l30.88 76.88-45.264 45.248-76.192-31.376c-5.808 2.816-11.744 5.184-17.872 7.376l-32.432 76h-64l-31.632-75.744c-6.368-2.256-12.496-4.624-18.56-7.504l-76.064 30.56-45.248-45.248 31.008-75.376c-3.008-6.192-5.44-12.496-7.76-19.008l-75.248-32.176v-64l75.312-31.376c2.32-6.496 4.816-12.816 7.808-19.008l-30.432-75.872 45.248-45.248 75.568 31.12c6.064-2.88 12.256-5.184 18.624-7.376l32.368-75.744h64l31.68 76.128c6.064 2.256 12.064 4.624 17.808 7.376l76.752-30.752 45.248 45.248-31.504 76.368c2.688 5.744 4.88 11.568 7.008 17.504l76.512 32.624zM255.504 128c-52.992 0-96 43.008-96 96s43.008 96 96 96 96-43.008 96-96-43.008-96-96-96z" />
<glyph unicode="&#xe611;" d="M103.715 36.572l26 26-67.143 67.143-26-26v-30.572h36.572v-36.572h30.572zM253.143 301.714q0 6.286-6.286 6.286-2.857 0-4.857-2l-154.857-154.857q-2-2-2-4.857 0-6.286 6.285-6.286 2.857 0 4.857 2l154.857 154.857q2 2 2 4.857zM237.714 356.572l118.857-118.857-237.714-237.714h-118.857v118.857zM432.857 329.143q0-15.143-10.572-25.714l-47.428-47.428-118.857 118.857 47.428 47.143q10.286 10.857 25.714 10.857 15.143 0 26-10.857l67.143-66.857q10.572-11.143 10.572-26z" horiz-adv-x="439" />
<glyph unicode="&#xe612;" d="M307.143 265.143q0-3.714-2.857-6.572l-133.143-133.143q-2.857-2.857-6.571-2.857t-6.572 2.857l-133.143 133.143q-2.857 2.857-2.857 6.572t2.857 6.572l14.285 14.286q2.857 2.857 6.572 2.857t6.572-2.857l112.285-112.286 112.285 112.286q2.857 2.857 6.572 2.857t6.572-2.857l14.286-14.286q2.857-2.857 2.857-6.572z" horiz-adv-x="329" />
<glyph unicode="&#xe613;" d="M448 16v16h-16v16h-16v208h16v16h16v16h16v-272h-16zM432 272h-16v-16h-320v16h-16v16h-16v16h384v-16h-16v-16zM80 272v-16h16v-208h-16v-16h-16v-16h-16v272h16v-16h16zM80 32h16v16h320v-16h16v-16h16v-16h-384v16h16v16zM205.696 112.288l36.576 59.152 36.576-36.864 50.288 75.696 52.576-130.272h-233.152l29.712 59.44 27.424-27.152zM183.856 175.856c-13.264 0-24 10.752-24 24s10.736 24 24 24c13.248 0 24-10.752 24-24s-10.752-24-24-24zM400 304l-117.152 87.2c-5.504-4.432-12.4-7.2-20-7.2-10.576 0-19.904 5.2-25.712 13.136l-125.136-93.136h-16l135.888 104.288c-0.608 2.48-1.024 5.040-1.024 7.712 0 17.664 14.32 32 31.984 32 17.68 0 32-14.336 32-32 0-5.744-1.648-11.072-4.304-15.744l125.456-96.256h-16z" />
<glyph unicode="&#xe614;" d="M448 352h-95.008c0 0-0.992 1.904-0.992 24s-17.904 40-40 40h-128c-22.096 0-40-17.904-40-40s0.992-24 0.992-24h-96.992c-17.664 0-32-14.336-32-32v-256c0-17.664 14.336-32 32-32h400c17.664 0 32 14.336 32 32v256c0 17.664-14.336 32-32 32zM248.72 96.432c-53.024 0-96 42.976-96 96 0 53.008 42.976 96 96 96 53.008 0 96-42.976 96-96 0-53.024-42.992-96-96-96z" />
<glyph unicode="&#xe615;" d="M448-32h-384q-26.5 0-45.25 18.75t-18.75 45.25v384q0 26.5 18.75 45.25t45.25 18.75h384q26.5 0 45.25-18.75t18.75-45.25v-384q0-26.5-18.75-45.25t-45.25-18.75zM448 384q0 13.5-9.25 22.75t-22.75 9.25h-64q-13 0-22.5-9.25t-9.5-22.75v-96h-128v96q0 13.5-9.25 22.75t-22.75 9.25h-64q-13 0-22.5-9.25t-9.5-22.75v-320q0-13.5 9.5-22.75t22.5-9.25h64q13.5 0 22.75 9.25t9.25 22.75v96h128v-96q0-13.5 9.5-22.75t22.5-9.25h64q13.5 0 22.75 9.25t9.25 22.75v320z" />
<glyph unicode="&#xe616;" d="M435.2 409.6h-23.040v-51.2h-81.92v51.2h-148.48v-51.2h-81.92v51.2h-23.040c-28.16 0-51.2-23.040-51.2-51.2v-307.2c0-28.16 23.040-51.2 51.2-51.2h358.4c28.16 0 51.2 23.040 51.2 51.2v307.2c0 28.16-23.040 51.2-51.2 51.2zM435.2 51.2h-358.4v204.8h358.4v-204.8zM158.72 460.8h-35.84v-87.040h35.84v87.040zM389.12 460.8h-35.84v-87.040h35.84v87.040z" />
<glyph unicode="&#xe617;" d="M389.094 256h-107.52v107.52c0 14.131-11.443 15.36-25.6 15.36-14.131 0-25.6-1.203-25.6-15.36v-107.52h-107.495c-14.157 0-15.36-11.469-15.36-25.6s1.203-25.6 15.36-25.6h107.495v-107.52c0-14.131 11.469-15.36 25.6-15.36 14.157 0 25.6 1.229 25.6 15.36v107.52h107.52c14.157 0 15.385 11.469 15.385 25.6s-1.229 25.6-15.385 25.6z" />
<glyph unicode="&#xe618;" d="M389.094 256h-266.214c-14.157 0-15.36-11.469-15.36-25.6s1.203-25.6 15.36-25.6h266.214c14.157 0 15.385 11.469 15.385 25.6s-1.229 25.6-15.385 25.6z" />
<glyph unicode="&#xe619;" d="M475.428 201.143q-43.428 67.428-108.857 100.857 17.428-29.714 17.428-64.285 0-52.857-37.572-90.428t-90.428-37.572-90.428 37.572-37.572 90.428q0 34.572 17.428 64.286-65.428-33.428-108.857-100.857 38-58.572 95.285-93.286t124.143-34.714 124.143 34.714 95.286 93.286zM269.714 310.857q0 5.714-4 9.714t-9.714 4q-35.714 0-61.286-25.571t-25.572-61.286q0-5.714 4-9.714t9.714-4 9.714 4 4 9.714q0 24.572 17.428 42t42 17.428q5.714 0 9.714 4t4 9.714zM512 201.143q0-9.714-5.714-19.714-40-65.714-107.572-105.286t-142.714-39.572-142.714 39.714-107.572 105.143q-5.715 10-5.715 19.714t5.715 19.714q40 65.428 107.572 105.143t142.714 39.714 142.714-39.714 107.572-105.143q5.714-10 5.714-19.714z" />
<glyph unicode="&#xe61a;" d="M365.714 173.714q0-11.428-8-19.428t-19.428-8q-14.572 0-22.857 12.286l-64.857 97.428h-12.857v-37.714l70.572-117.428q2.572-4.286 2.572-9.428 0-7.428-5.428-12.857t-12.857-5.428h-54.857v-77.714q0-13.143-9.429-22.572t-22.572-9.429h-45.714q-13.143 0-22.572 9.428t-9.428 22.572v77.714h-54.857q-7.428 0-12.857 5.428t-5.428 12.857q0 5.143 2.572 9.428l70.571 117.428v37.714h-12.857l-64.857-97.428q-8.285-12.286-22.857-12.286-11.428 0-19.428 8t-8 19.428q0 8.286 4.572 15.143l73.143 109.714q20.857 30.572 50.285 30.572h109.714q29.428 0 50.286-30.572l73.143-109.714q4.572-6.857 4.572-15.143zM246.857 402.286q0-26.572-18.715-45.285t-45.286-18.715-45.286 18.715-18.715 45.285 18.715 45.286 45.286 18.714 45.286-18.714 18.714-45.286z" horiz-adv-x="366" />
<glyph unicode="&#xe61b;" d="M365.714 155.429v54.857q0 4-2.572 6.572t-6.572 2.572h-64v64q0 4-2.572 6.572t-6.572 2.571h-54.857q-4 0-6.571-2.571t-2.571-6.572v-64h-64q-4 0-6.571-2.572t-2.571-6.572v-54.857q0-4 2.571-6.572t6.572-2.572h64v-64q0-4 2.571-6.572t6.571-2.572h54.857q4 0 6.572 2.572t2.572 6.572v64h64q4 0 6.572 2.572t2.572 6.572zM182.857 365.714h146.286v36.572h-146.286v-36.572zM73.143 365.714v-365.714h-9.143q-26.285 0-45.143 18.857t-18.857 45.143v237.714q0 26.286 18.857 45.143t45.143 18.857h9.143zM411.428 365.714v-365.714h-310.857v365.714h45.714v45.714q0 11.428 8 19.428t19.428 8h164.572q11.428 0 19.428-8t8-19.428v-45.714h45.714zM512 301.714v-237.714q0-26.286-18.857-45.143t-45.143-18.857h-9.143v365.714h9.143q26.286 0 45.143-18.857t18.857-45.143z" />
<glyph unicode="&#xe61c;" d="M182.857 73.143q0 15.143-10.714 25.857t-25.857 10.714-25.857-10.714-10.715-25.857 10.715-25.857 25.857-10.714 25.857 10.714 10.714 25.857zM73.143 219.429h109.715v73.143h-45.143q-4-0.571-6.286-2.571l-55.715-55.714q-2-3.429-2.572-6.286v-8.572zM438.857 73.143q0 15.143-10.714 25.857t-25.857 10.714-25.857-10.714-10.714-25.857 10.714-25.857 25.857-10.714 25.857 10.714 10.714 25.857zM475.428 265.143v54.857q0 4-2.572 6.572t-6.572 2.571h-64v64q0 4-2.572 6.572t-6.572 2.572h-54.857q-4 0-6.572-2.572t-2.572-6.572v-64h-64q-4 0-6.572-2.571t-2.571-6.572v-54.857q0-4 2.571-6.571t6.572-2.572h64v-64q0-4 2.572-6.572t6.572-2.572h54.857q4 0 6.572 2.572t2.572 6.572v64h64q4 0 6.572 2.571t2.572 6.572zM548.572 420.572v-329.143q0-7.428-5.428-12.857t-12.857-5.428h-54.857q0-30.286-21.428-51.714t-51.714-21.428-51.714 21.428-21.428 51.714h-109.714q0-30.286-21.428-51.714t-51.714-21.428-51.715 21.428-21.428 51.714h-36.572q-7.428 0-12.857 5.428t-5.428 12.857 5.428 12.857 12.857 5.428v118.857q0 7.429 3.715 16.572t9.143 14.572l56.572 56.572q5.428 5.428 14.572 9.143t16.572 3.714h45.714v91.428q0 7.429 5.428 12.857t12.857 5.428h329.143q7.428 0 12.857-5.428t5.428-12.857z" horiz-adv-x="549" />
<glyph unicode="&#xe61d;" d="M182.857 457.143v-182.857q0-17.428-10.143-31.714t-26.428-20v-222.572q0-14.857-10.857-25.714t-25.715-10.857h-36.572q-14.857 0-25.715 10.857t-10.857 25.714v222.571q-16.285 5.714-26.428 20t-10.143 31.715v182.857q0 7.428 5.428 12.857t12.857 5.428 12.857-5.428 5.428-12.857v-118.857q0-7.428 5.428-12.857t12.857-5.428 12.857 5.428 5.428 12.857v118.857q0 7.428 5.428 12.857t12.857 5.428 12.857-5.428 5.428-12.857v-118.857q0-7.428 5.428-12.857t12.857-5.428 12.857 5.428 5.428 12.857v118.857q0 7.428 5.428 12.857t12.857 5.428 12.857-5.428 5.428-12.857zM402.286 457.143v-457.143q0-14.857-10.857-25.714t-25.714-10.857h-36.572q-14.857 0-25.714 10.857t-10.857 25.714v146.286h-64q-3.714 0-6.428 2.714t-2.714 6.428v228.571q0 37.715 26.857 64.572t64.571 26.857h73.143q7.428 0 12.857-5.428t5.428-12.857z" horiz-adv-x="403" />
<glyph unicode="&#xe61e;" d="M365.714 274.286q0 7.429-5.428 12.857t-12.857 5.428-12.857-5.428-5.428-12.857 5.428-12.857 12.857-5.428 12.857 5.428 5.428 12.857zM402.286 274.286q0-17.714-10.143-31.714t-26.428-20v-112.857q0-45.428-37.572-77.572t-90.428-32.143-90.428 32.143-37.572 77.572v37.714q-46.857 5.714-78.285 36.572t-31.428 72v146.286q0 7.428 5.428 12.857t12.857 5.428q1.715 0 4.572-0.571 4.857 8.571 13.428 13.714t18.572 5.143q15.143 0 25.857-10.715t10.715-25.857-10.715-25.857-25.857-10.714q-9.428 0-18.285 5.143v-114.857q0-30.286 26.857-51.714t64.571-21.428 64.572 21.428 26.857 51.714v114.857q-8.857-5.143-18.285-5.143-15.143 0-25.857 10.714t-10.714 25.857 10.714 25.857 25.857 10.714q10 0 18.572-5.143t13.428-13.715q2.857 0.572 4.572 0.572 7.428 0 12.857-5.428t5.429-12.857v-146.286q0-41.143-31.428-72t-78.286-36.572v-37.714q0-30.286 26.857-51.714t64.571-21.428 64.572 21.428 26.857 51.714v112.857q-16.286 6-26.428 20t-10.143 31.715q0 22.857 16 38.857t38.857 16 38.857-16 16-38.857z" horiz-adv-x="403" />
<glyph unicode="&#xe61f;" d="M402.286 256q0-39.714-26.857-73.428t-73.286-53.286-101-19.572q-24.572 0-50.286 4.572-35.428-25.143-79.428-36.572-10.285-2.572-24.572-4.572h-0.857q-3.143 0-5.857 2.286t-3.285 6q-0.285 0.857-0.285 1.857t0.143 1.857 0.572 1.714l0.715 1.428t1 1.572 1.143 1.428 1.285 1.428 1.143 1.286q1.428 1.714 6.572 7.143t7.428 8.428 6.428 8.286 7.143 11 5.857 12.572q-35.428 20.572-55.715 50.572t-20.285 64q0 39.714 26.857 73.428t73.285 53.286 101 19.571 101-19.571 73.286-53.286 26.857-73.428zM512 182.857q0-34.286-20.286-64.143t-55.714-50.428q2.857-6.857 5.857-12.572t7.143-11 6.428-8.286 7.428-8.428 6.572-7.143q0.286-0.286 1.143-1.286t1.286-1.428 1.143-1.428 1-1.572l0.714-1.428t0.572-1.714 0.143-1.857-0.286-1.857q-0.857-4-3.714-6.286t-6.286-2q-14.286 2-24.572 4.572-44 11.428-79.428 36.572-25.714-4.572-50.286-4.572-77.428 0-134.857 37.714 16.571-1.143 25.143-1.143 46 0 88.286 12.857t75.428 36.857q35.714 26.286 54.857 60.572t19.143 72.572q0 22-6.572 43.428 36.857-20.286 58.286-50.857t21.429-65.714z" />
<glyph unicode="&#xe620;" d="M109.715 100.572v-18.286q0-3.714-2.715-6.428t-6.428-2.714h-18.285q-3.715 0-6.428 2.714t-2.715 6.428v18.286q0 3.714 2.715 6.428t6.428 2.714h18.285q3.715 0 6.428-2.714t2.715-6.428zM109.715 173.714v-18.286q0-3.714-2.715-6.428t-6.428-2.714h-18.285q-3.715 0-6.428 2.714t-2.715 6.428v18.286q0 3.714 2.715 6.428t6.428 2.714h18.285q3.715 0 6.428-2.714t2.715-6.428zM182.857 173.714v-18.286q0-3.714-2.714-6.428t-6.429-2.714h-18.286q-3.714 0-6.428 2.714t-2.714 6.428v18.286q0 3.714 2.714 6.428t6.428 2.714h18.286q3.714 0 6.428-2.714t2.714-6.428zM109.715 246.857v-18.285q0-3.714-2.715-6.428t-6.428-2.714h-18.285q-3.715 0-6.428 2.714t-2.715 6.428v18.286q0 3.714 2.715 6.428t6.428 2.714h18.285q3.715 0 6.428-2.714t2.715-6.428zM329.143 100.572v-18.286q0-3.714-2.714-6.428t-6.428-2.714h-18.286q-3.714 0-6.428 2.714t-2.714 6.428v18.286q0 3.714 2.714 6.428t6.428 2.714h18.286q3.714 0 6.428-2.714t2.714-6.428zM256 173.714v-18.286q0-3.714-2.714-6.428t-6.428-2.714h-18.286q-3.714 0-6.428 2.714t-2.714 6.428v18.286q0 3.714 2.714 6.428t6.428 2.714h18.286q3.714 0 6.428-2.714t2.714-6.428zM182.857 246.857v-18.285q0-3.714-2.714-6.428t-6.429-2.714h-18.286q-3.714 0-6.428 2.714t-2.714 6.428v18.286q0 3.714 2.714 6.428t6.428 2.714h18.286q3.714 0 6.428-2.714t2.714-6.428zM329.143 173.714v-18.286q0-3.714-2.714-6.428t-6.428-2.714h-18.286q-3.714 0-6.428 2.714t-2.714 6.428v18.286q0 3.714 2.714 6.428t6.428 2.714h18.286q3.714 0 6.428-2.714t2.714-6.428zM256 246.857v-18.285q0-3.714-2.714-6.428t-6.428-2.714h-18.286q-3.714 0-6.428 2.714t-2.714 6.428v18.286q0 3.714 2.714 6.428t6.428 2.714h18.286q3.714 0 6.428-2.714t2.714-6.428zM329.143 246.857v-18.285q0-3.714-2.714-6.428t-6.428-2.714h-18.286q-3.714 0-6.428 2.714t-2.714 6.428v18.286q0 3.714 2.714 6.428t6.428 2.714h18.286q3.714 0 6.428-2.714t2.714-6.428zM256 0h109.714v329.143h-73.143v-9.143q0-11.428-8-19.428t-19.428-8h-128q-11.428 0-19.428 8t-8 19.428v9.143h-73.143v-329.143h109.715v64q0 3.714 2.714 6.428t6.429 2.714h91.428q3.714 0 6.428-2.714t2.714-6.428v-64zM256 338.286v91.428q0 3.715-2.714 6.429t-6.428 2.714h-18.286q-3.714 0-6.428-2.714t-2.714-6.429v-27.428h-36.572v27.428q0 3.715-2.714 6.429t-6.428 2.714h-18.286q-3.714 0-6.428-2.714t-2.714-6.429v-91.428q0-3.714 2.714-6.428t6.428-2.714h18.286q3.714 0 6.428 2.714t2.714 6.428v27.428h36.572v-27.428q0-3.714 2.714-6.428t6.428-2.714h18.286q3.714 0 6.428 2.714t2.714 6.428zM402.286 347.429v-365.714q0-7.428-5.428-12.857t-12.857-5.428h-365.714q-7.428 0-12.857 5.428t-5.428 12.857v365.714q0 7.428 5.428 12.857t12.857 5.429h91.428v82.285q0 11.428 8 19.428t19.428 8h128q11.428 0 19.428-8t8-19.428v-82.285h91.428q7.428 0 12.857-5.429t5.428-12.857z" horiz-adv-x="403" />
<glyph unicode="&#xe621;" d="M256.672 346.48c0 0-32 68.192-104 68.192-78.672 0-120-66.672-120-133.328 0-110.672 224-248 224-248s222.656 136 222.656 248c0 68-42.656 133.328-118.656 133.328s-104-68.192-104-68.192z" />
</font>
</defs>
</svg>
